<?xml version="1.0" encoding="UTF-8" standalone="no"?>
<!-- Created with Inkscape (http://www.inkscape.org/) -->

<svg
   width="100"
   height="100"
   viewBox="0 0 26.458333 26.458333"
   version="1.1"
   id="svg5"
   xml:space="preserve"
   inkscape:export-filename="pragmatic-play-classic-light.svg"
   inkscape:export-xdpi="96"
   inkscape:export-ydpi="96"
   xmlns:inkscape="http://www.inkscape.org/namespaces/inkscape"
   xmlns:sodipodi="http://sodipodi.sourceforge.net/DTD/sodipodi-0.dtd"
   xmlns="http://www.w3.org/2000/svg"
   xmlns:svg="http://www.w3.org/2000/svg"><sodipodi:namedview
     id="namedview7"
     pagecolor="#ffffff"
     bordercolor="#000000"
     borderopacity="0.25"
     inkscape:showpageshadow="2"
     inkscape:pageopacity="0.0"
     inkscape:pagecheckerboard="true"
     inkscape:deskcolor="#d1d1d1"
     inkscape:document-units="mm"
     showgrid="false" /><defs
     id="defs2"><font
       id="FontID1"
       horiz-adv-x="634"
       font-variant="normal"
       style="fill-rule:nonzero"
       font-style="italic"
       font-weight="400"
       horiz-origin-x="0"
       horiz-origin-y="0"
       vert-origin-x="512"
       vert-origin-y="768"
       vert-adv-y="1024">
	<font-face
   font-family="Brush Script MT"
   id="font-face272">
		<font-face-src>
			<font-face-name
   name="Brush Script MT Italic" />
		</font-face-src>
	</font-face>
   <missing-glyph
   id="missing-glyph276"><path
     d="M0 0z"
     id="path274" /></missing-glyph>
   <glyph
   unicode="c"
   horiz-adv-x="291"
   d="M301.652 152.659l0 -32.6607c-34.8268,-34.1692 -63.1632,-60.6645 -85.1639,-79.5013 -21.993,-18.8291 -42.493,-33.4962 -61.4922,-43.8313 -19.1694,-10.4975 -37.6658,-15.6651 -55.9998,-15.6651 -17.8311,0 -34.3317,7.00094 -49.1613,21.1653 -14.9998,14.1643 -26.6655,32.8309 -35.1672,55.6672 -8.5017,22.9987 -12.6636,47.3279 -12.6636,73.1579 0,22.0007 4.82717,41.8355 14.6594,59.0013 9.66981,17.336 28.4989,39.6617 56.5026,67.0002 33.1636,32.4983 63.9987,57.663 92.4975,75.3239 28.4989,17.8389 50.8245,26.6655 67.1626,26.6655 11.6657,0 21.6604,-3.99943 29.8294,-12.1608 8.16905,-8.16905 12.1685,-18.5041 12.1685,-30.8351 0,-10.4975 -5.33773,-25.3349 -16.1679,-44.4966 -10.6677,-19.3319 -22.666,-36.0026 -36.1651,-50.167 -13.3289,-14.1643 -23.8341,-21.3277 -31.6628,-21.3277 -8.5017,0 -12.6713,4.49453 -12.6713,13.6615 0.332641,2.66887 0.50283,5.16755 0.673019,7.33358 0.162453,2.33623 0.332641,4.66472 0.332641,6.83075 0,3.99943 -1.50075,6.17321 -4.16962,6.6683 -2.83132,0.50283 -6.16547,-0.665283 -10.0025,-3.66679 -32.4983,-22.8285 -54.8317,-38.834 -66.9924,-47.9932 -11.9983,-9.33717 -21.4979,-18.6666 -28.4989,-28.1662 -7.00094,-9.33717 -10.4975,-19.3319 -10.4975,-29.667 0,-19.3319 6.16547,-34.8345 18.4964,-46.9953 12.5011,-12.006 28.4989,-18.0013 48.3336,-18.0013 20.4923,0 45.1619,7.82868 73.9934,23.664 28.8315,15.8353 62.8305,38.834 101.827,68.996z"
   id="glyph278" />
   <glyph
   unicode="C"
   horiz-adv-x="603"
   d="M615.975 155.491l0 -31.6628c-54.6615,-60.827 -104.828,-110.994 -150.493,-150.493 -45.8349,-39.6617 -90.4939,-69.9939 -133.993,-91.3294 -43.6689,-21.3355 -85.8292,-31.9955 -126.497,-31.9955 -35.1672,0 -65.3292,6.99321 -90.6641,20.9951 -25.1647,14.0019 -44.1639,34.5019 -56.9977,61.3298 -12.8338,26.8357 -19.3319,58.6687 -19.3319,95.499 0,28.994 4.66472,59.6666 13.8317,91.9947 9.33717,32.4983 22.8362,65.1668 40.3347,98.1602 17.6609,33.1713 39.1666,67.1626 64.6639,102.33 25.6598,35.1672 55.6594,72.1677 90.1613,110.994 35.8324,40.0021 71.1621,74.5039 105.997,103.668 34.8345,29.1641 66.3272,51.9926 94.6636,68.6634 28.3287,16.663 54.6615,28.994 78.8283,37.163 24.3292,8.16905 44.3341,12.1685 60.3319,12.1685 16.3304,0 30.1621,-3.83698 41.4951,-11.6657 11.333,-7.83641 20.1674,-19.3319 26.3328,-34.3317 6.16547,-14.8374 9.33717,-32.1657 9.33717,-51.6677 0,-36.8304 -12.5011,-77.8304 -37.6658,-122.992 -25.0023,-44.9994 -56.17,-88.6683 -93.6656,-130.666 -37.3332,-41.9979 -73.1656,-76.3296 -107.165,-102.825 -33.999,-26.503 -58.4907,-39.8319 -73.3281,-39.8319 -10.1649,0 -19.5021,3.99943 -28.1662,11.9983 -8.5017,7.99887 -12.8338,16.9957 -12.8338,27.1683 0,18.4964 9.83226,40.9923 29.5045,67.3251 19.6645,26.503 41.1624,50.6698 64.3313,72.6628 23.3313,22.0007 37.163,33.0011 41.6575,33.0011 2.33623,0 3.50434,-0.997924 3.50434,-3.00151 0,-2.83132 -1.67094,-7.99887 -5.16755,-14.9998 -3.33415,-7.16339 -5.16755,-11.6657 -5.16755,-13.3289 0,-2.49868 0.997924,-3.83698 3.00151,-3.83698 5.50019,0 21.4979,14.8374 47.8307,44.3341 26.3328,29.667 50.4996,62.1653 72.3302,97.8275 22.0007,35.67 33.0011,64.8341 33.0011,87.5002 0,9.49962 -2.00358,16.663 -6.16547,21.8306 -3.99943,4.99736 -10.1726,7.49604 -18.1715,7.49604 -22.8285,0 -57.3304,-18.4964 -103.66,-55.3268 -46.33,-37.0006 -93.8281,-83.9958 -142.494,-141.164 -48.6662,-56.9977 -89.1634,-115.991 -121.662,-176.826 -32.4983,-60.9972 -48.8287,-114.491 -48.8287,-160.658 0,-26.6655 3.99943,-48.9989 11.9983,-66.83 7.99887,-18.0013 19.6645,-31.833 34.997,-41.4951 15.5026,-9.84 34.1692,-14.6672 55.9998,-14.6672 47.1655,0 100.659,18.334 160.496,55.1643 59.829,36.6602 125.661,90.8266 197.488,162.321z"
   id="glyph280" />
   <glyph
   unicode="s"
   horiz-adv-x="311"
   d="M6.00302 139.996l0 11.8281c83.9958,88.4981 141.659,150.501 173.322,185.993 7.17113,40.1645 24.337,60.1694 51.6677,60.1694 6.83075,0 14.1643,-2.00358 22.0007,-5.83283l2.99377 -9.33717c-1.33057,-3.82924 -1.99585,-9.49962 -1.99585,-16.663 0,-6.16547 2.32849,-17.6687 7.16339,-34.3317 4.66472,-16.8332 8.33151,-30.9975 11.0004,-42.3306 2.49868,-11.333 3.83698,-24.337 3.83698,-38.6715 0,-21.4979 -4.8349,-41.9979 -14.6672,-61.6624 -9.83226,-19.827 -24.0043,-38.6638 -42.5007,-56.8275 -18.4964,-18.0013 -42.5007,-36.4977 -71.8273,-55.3345 11.6657,-1.99585 20.9951,-3.00151 27.8258,-3.00151 13.3366,0 27.8336,3.33415 43.3362,10.0025 15.3324,6.6683 31.1677,15.6651 47.3279,26.8357 16.1679,11.333 34.8345,25.83 56.3324,43.6611l0 -32.6607c-41.6653,-40.6673 -78.8283,-71.3322 -111.829,-92.3351 -32.8309,-20.9951 -61.1596,-31.5004 -84.8313,-31.5004 -30.6649,0 -58.9936,13.004 -84.9937,39.0041 -15.3324,15.6651 -24.8321,30.6649 -28.6613,44.8292 -3.66679,14.3345 -5.50019,33.8289 -5.50019,58.1658zm181.986 74.6587l-8.8266 71.3322c-20.1674,-22.8285 -63.1632,-66.6598 -129.328,-131.324 19.4943,-4.33207 32.8309,-10.0025 39.9943,-17.1658 7.17113,-7.17113 17.336,-21.0028 30.3323,-41.5028 22.1632,9.16698 39.1666,21.4979 51.0024,37.3332 11.8281,15.8353 17.8311,37.3332 17.8311,64.6639 0,3.33415 0,6.33566 -0.170189,8.83434 -0.162453,2.66887 -0.495094,5.16755 -0.835471,7.82868z"
   id="glyph282" />
   <glyph
   unicode="a"
   horiz-adv-x="405"
   d="M64.9966 241.157c49.5017,44.9994 97.4949,78.3332 144.165,100.164 46.4924,21.8306 82.4951,32.6607 107.822,32.6607 6.83849,0 13.1664,-2.83132 19.1694,-8.49396 5.83283,-5.67038 10.4975,-12.3387 13.8317,-19.8347 3.4966,-7.50377 5.16755,-13.004 5.16755,-16.663 0,-5.84056 -2.33623,-10.1726 -6.83075,-12.8338 -4.50226,-2.83906 -12.5011,-6.16547 -24.0043,-10.0025 2.33623,-5.33 5.33773,-11.9983 8.83434,-20.1674 3.66679,-7.99887 6.33566,-14.6672 8.33151,-19.6645 2.00358,-5.16755 2.83906,-9.49962 2.83906,-13.4991 0,-7.83641 -7.83641,-22.3334 -23.6717,-43.6611 -15.6651,-21.3355 -26.8279,-37.0006 -33.1636,-47.1655 -6.33566,-10.1726 -9.49962,-22.5036 -9.49962,-37.1707 0,-23.9966 11.0004,-36.1651 33.1636,-36.1651 22.8362,0 58.4985,21.3355 106.994,63.9987l0 -29.667c-82.3249,-91.4919 -141.326,-137.157 -176.826,-137.157 -12.826,0 -21.8306,4.16189 -27.3307,12.5011 -5.33,8.33151 -7.99887,20.4923 -7.99887,36.8304 0,25.6598 9.33717,62.8305 28.0038,111.659 -47.6683,-52.6656 -82.8354,-90.1613 -105.997,-112.495 -23.1689,-22.1632 -42.1681,-33.3338 -57.1679,-33.3338 -7.16339,0 -15.9977,6.16547 -26.8279,18.5041 -10.6677,12.4934 -20.1674,28.4989 -28.4989,48.1634 -8.33924,19.6645 -12.5011,40.1645 -12.5011,61.1596 0,15.3324 1.50075,28.1662 4.33207,38.3311 3.00151,10.3351 8.66415,20.8326 17.1658,31.5004 8.5017,10.8379 22.0007,25.0023 40.4972,42.5007zm233.994 53.8338c-84.6688,-38.834 -144.993,-71.6649 -180.996,-98.663 -35.9949,-27.1683 -53.9962,-55.0019 -53.9962,-83.6632 0,-10.3351 1.8334,-18.9992 5.33,-25.6675 3.66679,-6.6683 8.5017,-10.0025 14.6672,-10.0025 3.66679,0 10.0025,2.33623 18.9992,6.83849 34.1692,20.1596 65.4994,46.4924 93.8281,78.9907 28.3364,32.3358 62.4979,76.4998 102.167,132.167z"
   id="glyph284" />
   <glyph
   unicode="l"
   horiz-adv-x="228"
   d="M241.32 159.328l0 -36.1651c-68.1605,-90.1613 -123.495,-135.161 -166.158,-135.161 -22.9987,0 -41.1624,12.6636 -54.3289,37.8283 -13.1664,25.1647 -19.8347,58.336 -19.8347,99.3283 0,33.1713 7.83641,72.6705 23.5015,118.335 15.5026,45.8272 36.4977,92.1571 62.6604,139.16 26.1704,46.9953 53.3309,87.9953 81.4971,122.992 28.1662,34.997 54.3366,59.4964 78.5034,73.4983 9.66207,5.83283 17.3283,8.83434 22.8285,8.83434 6.83075,0 11.333,-3.00151 13.6692,-9.00453 2.16604,-5.99528 3.32641,-16.3304 3.32641,-30.9975 0,-45.3321 -18.3262,-100.829 -55.1643,-166.824 -36.8304,-65.8321 -88.1577,-133.165 -153.99,-201.828 -3.16396,-16.9957 -4.8349,-29.9996 -4.8349,-38.9964 0,-20.8326 4.50226,-37.836 13.4991,-50.8322 9.00453,-12.9962 21.3355,-19.5021 37.3332,-19.5021 8.16905,0 17.0034,3.1717 26.503,9.49962 9.49962,6.33566 19.3319,14.3345 29.8294,23.6717 10.3351,9.49962 30.8273,28.1662 61.1596,56.1622zm-146.324 87.6626c16.9957,16.663 33.3338,35.4998 49.1613,56.6651 15.8353,21.1653 30.8351,43.6611 44.837,67.8279 13.9941,24.0043 24.9945,45.6647 32.9934,64.8341 7.99887,19.1617 12.006,33.6664 12.006,43.4987 0,7.49604 -2.66887,11.1628 -7.83641,11.1628 -2.00358,0 -5.67038,-1.8334 -11.1628,-5.33 -20.0049,-16.3381 -42.3383,-48.0009 -67.1704,-95.3288 -24.8321,-47.3356 -42.3306,-95.1664 -52.8281,-143.33z"
   id="glyph286" />
   <glyph
   unicode="i"
   horiz-adv-x="228"
   d="M208.156 371.986c-8.16132,0 -15.8275,3.16396 -23.1611,9.32943 -7.33358,6.16547 -11.0004,14.0019 -11.0004,23.3313 0,14.3345 6.83075,30.3323 20.5,48.0009 13.6615,17.4985 27.8258,26.3328 42.3306,26.3328 9.83226,0 18.0013,-3.00151 24.4994,-8.99679 6.49811,-6.00302 9.66207,-14.8374 9.66207,-26.1704 0,-13.9941 -6.66056,-29.4968 -19.9972,-46.5002 -13.3289,-16.8255 -27.6634,-25.3272 -42.8334,-25.3272zm33.1636 -218.159l0 -35.6623c-31.6628,-40.6673 -61.1596,-71.5024 -88.4904,-92.1649 -27.3307,-20.6702 -50.4996,-30.9975 -69.669,-30.9975 -26.8279,0 -46.6626,13.9941 -59.6589,41.9979 -13.004,27.996 -19.5021,58.6609 -19.5021,91.8245 0,12.6713 1.33057,24.8321 3.83698,36.3353 2.66113,11.6657 5.83283,21.1653 9.32943,28.6613 3.66679,7.50377 10.3351,19.1694 20.1674,35.1672 46.1598,71.9975 88.4981,108 126.829,108 19.827,0 29.8294,-7.66622 29.8294,-22.9987 0,-10.3351 -6.49811,-26.6655 -19.3319,-48.8364 -12.8338,-22.1632 -24.3292,-37.9985 -34.3317,-47.4981 -28.3364,-27.3307 -46.8328,-46.33 -55.3345,-56.9977 -8.66415,-10.8302 -12.9962,-22.9987 -12.9962,-36.6602 0,-11.6657 4.33207,-21.5057 13.1664,-29.3343 8.83434,-7.83641 20.1674,-11.6657 34.1615,-11.6657 15.3324,0 32.1657,5.66264 50.4996,16.8332 18.334,11.1628 42.1681,29.1641 71.4947,53.9962z"
   id="glyph288" />
  </font><font
       id="FontID0"
       horiz-adv-x="722"
       font-variant="normal"
       style="fill-rule:nonzero"
       font-weight="700"
       horiz-origin-x="0"
       horiz-origin-y="0"
       vert-origin-x="512"
       vert-origin-y="768"
       vert-adv-y="1024">
	<font-face
   font-family="Arial"
   id="font-face291">
		<font-face-src>
			<font-face-name
   name="Arial Bold" />
		</font-face-src>
	</font-face>
   <missing-glyph
   id="missing-glyph295"><path
     d="M0 0z"
     id="path293" /></missing-glyph>
   <glyph
   unicode="A"
   horiz-adv-x="722"
   d="M717.959 0l-156.158 0 -61.8321 162.987 -287.147 0 -59.4952 -162.987 -153.326 0 277.981 715.966 153.164 0 286.813 -715.966zm-264.982 283.981l-99.4959 264.992 -96.6633 -264.992 196.159 0z"
   id="glyph297" />
   <glyph
   unicode="L"
   horiz-adv-x="610"
   d="M76.9968 0l0 709.967 144.99 0 0 -588.973 358.984 0 0 -120.993 -503.974 0z"
   id="glyph299" />
   <glyph
   unicode="Y"
   horiz-adv-x="666"
   d="M260.986 0l0 301.32 -262.483 414.645 169.492 0 169.32 -283.485 164.828 283.485 166.326 0 -262.493 -415.647 0 -300.319 -144.99 0z"
   id="glyph301" />
   <glyph
   unicode="P"
   horiz-adv-x="666"
   d="M73.0007 0l0 715.966 231.82 0c87.8214,0 144.99,-3.50031 171.657,-10.6729 40.9921,-10.8348 75.3275,-34.1635 102.996,-70.158 27.6585,-36.0047 41.4979,-82.5001 41.4979,-139.497 0,-43.9967 -8.00216,-80.8309 -23.8345,-110.826 -16.0043,-29.9955 -36.1665,-53.4961 -60.6687,-70.6638 -24.4921,-16.9957 -49.49,-28.3262 -74.8217,-33.8296 -34.5074,-6.82864 -84.3312,-10.329 -149.664,-10.329l-93.9925 0 0 -269.989 -144.99 0zm144.99 594.972l0 -203.989 78.8278 0c56.8244,0 94.6602,3.83416 113.831,11.3305 19.1607,7.49633 34.1635,19.1607 44.9881,35.3269 10.8348,16.0043 16.3382,34.4973 16.3382,55.833 0,26.1613 -7.66831,47.669 -22.833,64.6647 -15.3366,16.9957 -34.4973,27.6687 -57.998,31.9985 -17.1677,3.16647 -51.665,4.83569 -103.664,4.83569l-69.4903 0z"
   id="glyph303" />
  </font><style
       type="text/css"
       id="style306">
   <![CDATA[
    @font-face { font-family:"Brush Script MT";font-variant:normal;font-style:italic;font-weight:normal;src:url("#FontID1") format(svg)}
    @font-face { font-family:"Arial";font-variant:normal;font-weight:bold;src:url("#FontID0") format(svg)}
    .fil1 {fill:#332C2B}
    .fil0 {fill:#F7941D}
    .fil2 {fill:#F7941D}
    .fnt0 {font-weight:bold;font-size:73.86px;font-family:'Arial'}
    .fnt1 {font-style:italic;font-weight:normal;font-size:96.59px;font-family:'Brush Script MT'}
   ]]>
  </style><font
       id="FontID1-7"
       horiz-adv-x="634"
       font-variant="normal"
       style="fill-rule:nonzero"
       font-style="italic"
       font-weight="400"
       horiz-origin-x="0"
       horiz-origin-y="0"
       vert-origin-x="512"
       vert-origin-y="768"
       vert-adv-y="1024">
	<font-face
   font-family="Brush Script MT"
   id="font-face674">
		<font-face-src>
			<font-face-name
   name="Brush Script MT Italic" />
		</font-face-src>
	</font-face>
   <missing-glyph
   id="missing-glyph678"><path
     d="M0 0z"
     id="path676" /></missing-glyph>
   <glyph
   unicode="c"
   horiz-adv-x="291"
   d="M301.563 152.614l0 -32.6511c-34.8165,-34.1592 -63.1446,-60.6466 -85.1389,-79.4779 -21.9865,-18.8235 -42.4805,-33.4864 -61.4741,-43.8184 -19.1638,-10.4945 -37.6547,-15.6605 -55.9833,-15.6605 -17.8259,0 -34.3216,6.99888 -49.1468,21.159 -14.9954,14.1602 -26.6576,32.8213 -35.1568,55.6508 -8.49919,22.9919 -12.6599,47.314 -12.6599,73.1364 0,21.9943 4.82575,41.8231 14.6551,58.9839 9.66696,17.3309 28.4905,39.65 56.486,66.9804 33.1538,32.4887 63.9798,57.646 92.4703,75.3018 28.4905,17.8336 50.8095,26.6576 67.1428,26.6576 11.6622,0 21.654,-3.99825 29.8206,-12.1572 8.16665,-8.16665 12.1649,-18.4987 12.1649,-30.826 0,-10.4945 -5.33616,-25.3274 -16.1632,-44.4835 -10.6646,-19.3262 -22.6594,-35.992 -36.1544,-50.1522 -13.3249,-14.1602 -23.8271,-21.3214 -31.6535,-21.3214 -8.49919,0 -12.6676,4.4932 -12.6676,13.6575 0.332543,2.66808 0.502682,5.16602 0.67282,7.33142 0.162405,2.33554 0.332543,4.66334 0.332543,6.82874 0,3.99825 -1.50031,6.17139 -4.16839,6.66634 -2.83049,0.502682 -6.16365,-0.665087 -9.9995,-3.66571 -32.4887,-22.8218 -54.8155,-38.8225 -66.9727,-47.9791 -11.9948,-9.33442 -21.4916,-18.6611 -28.4905,-28.1579 -6.99888,-9.33442 -10.4945,-19.3262 -10.4945,-29.6582 0,-19.3262 6.16365,-34.8243 18.491,-46.9814 12.4974,-12.0025 28.4905,-17.996 48.3193,-17.996 20.4862,0 45.1486,7.82637 73.9716,23.657 28.823,15.8306 62.812,38.8225 101.797,68.9757z"
   id="glyph680" />
   <glyph
   unicode="C"
   horiz-adv-x="603"
   d="M615.793 155.445l0 -31.6535c-54.6454,-60.809 -104.798,-110.961 -150.449,-150.449 -45.8214,-39.65 -90.4673,-69.9733 -133.953,-91.3025 -43.656,-21.3292 -85.8039,-31.986 -126.459,-31.986 -35.1568,0 -65.31,6.99115 -90.6374,20.9889 -25.1573,13.9978 -44.1509,34.4917 -56.9809,61.3117 -12.83,26.8277 -19.3262,58.6514 -19.3262,95.4709 0,28.9854 4.66334,59.649 13.8276,91.9676 9.33442,32.4887 22.8295,65.1476 40.3228,98.1312 17.6557,33.1615 39.1551,67.1428 64.6449,102.3 25.6522,35.1568 55.643,72.1465 90.1347,110.961 35.8219,39.9903 71.1411,74.482 105.965,103.638 34.8243,29.1556 66.3076,51.9773 94.6357,68.6432 28.3203,16.6581 54.6454,28.9854 78.8051,37.1521 24.3221,8.16665 44.3211,12.1649 60.3141,12.1649 16.3256,0 30.1532,-3.83585 41.4829,-11.6622 11.3297,-7.8341 20.1614,-19.3262 26.3251,-34.3216 6.16365,-14.833 9.33442,-32.1562 9.33442,-51.6525 0,-36.8195 -12.4974,-77.8074 -37.6547,-122.956 -24.9949,-44.9862 -56.1534,-88.6422 -93.638,-130.628 -37.3222,-41.9855 -73.1441,-76.3071 -107.133,-102.795 -33.989,-26.4952 -58.4735,-39.8201 -73.3065,-39.8201 -10.1619,0 -19.4963,3.99825 -28.1579,11.9948 -8.49919,7.99651 -12.83,16.9906 -12.83,27.1603 0,18.491 9.82937,40.9802 29.4958,67.3052 19.6587,26.4952 41.1503,50.6549 64.3124,72.6414 23.3244,21.9943 37.1521,32.9914 41.6453,32.9914 2.33554,0 3.50331,-0.99763 3.50331,-3.00062 0,-2.83049 -1.67045,-7.99651 -5.16602,-14.9954 -3.33317,-7.16128 -5.16602,-11.6622 -5.16602,-13.3249 0,-2.49794 0.99763,-3.83585 3.00062,-3.83585 5.49857,0 21.4916,14.833 47.8167,44.3211 26.3251,29.6582 50.4847,62.147 72.3089,97.7987 21.9943,35.6595 32.9914,64.815 32.9914,87.4744 0,9.49682 -2.00299,16.6581 -6.16365,21.8241 -3.99825,4.99589 -10.1696,7.49383 -18.1662,7.49383 -22.8218,0 -57.3135,-18.491 -103.63,-55.3105 -46.3163,-36.9897 -93.8004,-83.9711 -142.452,-141.122 -48.6519,-56.9809 -89.1371,-115.957 -121.626,-176.774 -32.4887,-60.9792 -48.8143,-114.457 -48.8143,-160.611 0,-26.6576 3.99825,-48.9844 11.9948,-66.8103 7.99651,-17.996 19.6587,-31.8236 34.9867,-41.4829 15.4981,-9.8371 34.1592,-14.6628 55.9833,-14.6628 47.1516,0 100.629,18.3286 160.448,55.1481 59.8114,36.6494 125.624,90.7998 197.43,162.273z"
   id="glyph682" />
   <glyph
   unicode="s"
   horiz-adv-x="311"
   d="M6.00125 139.954l0 11.8246c83.9711,88.472 141.617,150.457 173.271,185.938 7.16902,40.1527 24.3298,60.1517 51.6525,60.1517 6.82874,0 14.1602,-2.00299 21.9943,-5.83111l2.99289 -9.33442c-1.33017,-3.82812 -1.99526,-9.49682 -1.99526,-16.6581 0,-6.16365 2.3278,-17.6635 7.16128,-34.3216 4.66334,-16.8282 8.32905,-30.9884 10.9971,-42.3181 2.49794,-11.3297 3.83585,-24.3298 3.83585,-38.6601 0,-21.4916 -4.83348,-41.9855 -14.6628,-61.6443 -9.82937,-19.8211 -23.9973,-38.6524 -42.4882,-56.8108 -18.491,-17.996 -42.4882,-36.487 -71.8062,-55.3182 11.6622,-1.99526 20.9889,-3.00062 27.8176,-3.00062 13.3327,0 27.8254,3.33317 43.3234,9.9995 15.3279,6.66634 31.1585,15.6605 47.314,26.8277 16.1632,11.3297 34.8243,25.8224 56.3158,43.6483l0 -32.6511c-41.653,-40.6554 -78.8051,-71.3112 -111.796,-92.3079 -32.8213,-20.9889 -61.1416,-31.4911 -84.8063,-31.4911 -30.6559,0 -58.9762,13.0001 -84.9687,38.9927 -15.3279,15.6605 -24.8248,30.6559 -28.6529,44.816 -3.66571,14.3303 -5.49857,33.8189 -5.49857,58.1487zm181.932 74.6367l-8.824 71.3112c-20.1614,-22.8218 -63.1446,-66.6402 -129.29,-131.285 19.4886,-4.3308 32.8213,-9.9995 39.9825,-17.1608 7.16902,-7.16902 17.3309,-20.9966 30.3233,-41.4906 22.1567,9.16428 39.1551,21.4916 50.9874,37.3222 11.8246,15.8306 17.8259,37.3222 17.8259,64.6449 0,3.33317 0,6.33379 -0.170138,8.83173 -0.162405,2.66808 -0.494948,5.16602 -0.835225,7.82637z"
   id="glyph684" />
   <glyph
   unicode="a"
   horiz-adv-x="405"
   d="M64.9774 241.086c49.4871,44.9862 97.4662,78.3101 144.123,100.134 46.4787,21.8241 82.4708,32.6511 107.79,32.6511 6.83647,0 13.1625,-2.83049 19.1638,-8.49146 5.83111,-5.66871 10.4945,-12.335 13.8276,-19.8289 3.49557,-7.50156 5.16602,-13.0001 5.16602,-16.6581 0,-5.83884 -2.33554,-10.1696 -6.82874,-12.83 -4.50094,-2.83822 -12.4974,-6.16365 -23.9973,-9.9995 2.33554,-5.32843 5.33616,-11.9948 8.83173,-20.1614 3.66571,-7.99651 6.33379,-14.6628 8.32905,-19.6587 2.00299,-5.16602 2.83822,-9.49682 2.83822,-13.4951 0,-7.8341 -7.8341,-22.3268 -23.6647,-43.6483 -15.6605,-21.3292 -26.82,-36.9897 -33.1538,-47.1516 -6.33379,-10.1696 -9.49682,-22.4969 -9.49682,-37.1598 0,-23.9895 10.9971,-36.1544 33.1538,-36.1544 22.8295,0 58.4812,21.3292 106.963,63.9798l0 -29.6582c-82.3006,-91.4649 -141.285,-137.116 -176.774,-137.116 -12.8223,0 -21.8241,4.16066 -27.3227,12.4974 -5.32843,8.32905 -7.99651,20.4862 -7.99651,36.8195 0,25.6522 9.33442,62.812 27.9955,111.626 -47.6542,-52.6501 -82.811,-90.1347 -105.965,-112.462 -23.162,-22.1567 -42.1557,-33.3239 -57.1511,-33.3239 -7.16128,0 -15.993,6.16365 -26.82,18.4987 -10.6646,12.4897 -20.1614,28.4905 -28.4905,48.1492 -8.33679,19.6587 -12.4974,40.1527 -12.4974,61.1416 0,15.3279 1.50031,28.1579 4.3308,38.3198 3.00062,10.332 8.6616,20.8265 17.1608,31.4911 8.49919,10.8347 21.9943,24.9949 40.4852,42.4882zm233.925 53.8179c-84.6439,-38.8225 -144.95,-71.6438 -180.942,-98.6339 -35.9843,-27.1603 -53.9803,-54.9857 -53.9803,-83.6385 0,-10.332 1.83286,-18.9936 5.32843,-25.66 3.66571,-6.66634 8.49919,-9.9995 14.6628,-9.9995 3.66571,0 9.9995,2.33554 18.9936,6.83647 34.1592,20.1537 65.4801,46.4787 93.8004,78.9675 28.3281,32.3263 62.4795,76.4773 102.137,132.128z"
   id="glyph686" />
   <glyph
   unicode="l"
   horiz-adv-x="228"
   d="M241.249 159.281l0 -36.1544c-68.1405,-90.1347 -123.459,-135.121 -166.109,-135.121 -22.9919,0 -41.1503,12.6599 -54.3128,37.8171 -13.1625,25.1573 -19.8289,58.3188 -19.8289,99.299 0,33.1615 7.8341,72.6491 23.4946,118.3 15.4981,45.8137 36.487,92.13 62.6419,139.119 26.1627,46.9814 53.3152,87.9693 81.4731,122.956 28.1579,34.9867 54.3206,59.4789 78.4802,73.4766 9.65923,5.83111 17.3232,8.83173 22.8218,8.83173 6.82874,0 11.3297,-3.00062 13.6652,-9.00187 2.1654,-5.99352 3.32543,-16.3256 3.32543,-30.9884 0,-45.3187 -18.3208,-100.799 -55.1481,-166.774 -36.8195,-65.8127 -88.1317,-133.126 -153.944,-201.769 -3.16303,-16.9906 -4.83348,-29.9908 -4.83348,-38.9849 0,-20.8265 4.50094,-37.8249 13.4951,-50.8173 9.00187,-12.9924 21.3292,-19.4963 37.3222,-19.4963 8.16665,0 16.9984,3.17076 26.4952,9.49682 9.49682,6.33379 19.3262,14.3303 29.8206,23.6647 10.332,9.49682 30.8183,28.1579 61.1416,56.1457zm-146.28 87.6368c16.9906,16.6581 33.3239,35.4893 49.1468,56.6484 15.8306,21.159 30.826,43.6483 44.8238,67.8079 13.99,23.9973 24.9872,45.6513 32.9837,64.815 7.99651,19.156 12.0025,33.6565 12.0025,43.4859 0,7.49383 -2.66808,11.1595 -7.8341,11.1595 -2.00299,0 -5.66871,-1.83286 -11.1595,-5.32843 -19.999,-16.3333 -42.3258,-47.9868 -67.1506,-95.3008 -24.8248,-47.3217 -42.3181,-95.1384 -52.8125,-143.288z"
   id="glyph688" />
   <glyph
   unicode="i"
   horiz-adv-x="228"
   d="M208.095 371.876c-8.15891,0 -15.8229,3.16303 -23.1543,9.32668 -7.33142,6.16365 -10.9971,13.9978 -10.9971,23.3244 0,14.3303 6.82874,30.3233 20.494,47.9868 13.6575,17.4933 27.8176,26.3251 42.3181,26.3251 9.82937,0 17.996,-3.00062 24.4922,-8.99414 6.4962,-6.00125 9.65923,-14.833 9.65923,-26.1627 0,-13.99 -6.6586,-29.4881 -19.9913,-46.4865 -13.3249,-16.8205 -27.6552,-25.3197 -42.8208,-25.3197zm33.1538 -218.094l0 -35.6517c-31.6535,-40.6554 -61.1416,-71.4814 -88.4643,-92.1377 -27.3227,-20.6641 -50.4847,-30.9884 -69.6485,-30.9884 -26.82,0 -46.6489,13.99 -59.6413,41.9855 -13.0001,27.9878 -19.4963,58.6436 -19.4963,91.7975 0,12.6676 1.33017,24.8248 3.83585,36.3246 2.66035,11.6622 5.83111,21.159 9.32668,28.6529 3.66571,7.50156 10.332,19.1638 20.1614,35.1568 46.1462,71.9763 88.472,107.968 126.792,107.968 19.8211,0 29.8206,-7.66397 29.8206,-22.9919 0,-10.332 -6.4962,-26.6576 -19.3262,-48.822 -12.83,-22.1567 -24.3221,-37.9873 -34.3216,-47.4841 -28.3281,-27.3227 -46.819,-46.3163 -55.3182,-56.9809 -8.6616,-10.827 -12.9924,-22.9919 -12.9924,-36.6494 0,-11.6622 4.3308,-21.4993 13.1625,-29.3257 8.83173,-7.8341 20.1614,-11.6622 34.1514,-11.6622 15.3279,0 32.1562,5.66097 50.4847,16.8282 18.3286,11.1595 42.1557,29.1556 71.4736,53.9803z"
   id="glyph690" />
  </font><font
       id="FontID0-5"
       horiz-adv-x="722"
       font-variant="normal"
       style="fill-rule:nonzero"
       font-weight="700"
       horiz-origin-x="0"
       horiz-origin-y="0"
       vert-origin-x="512"
       vert-origin-y="768"
       vert-adv-y="1024">
	<font-face
   font-family="Arial"
   id="font-face693">
		<font-face-src>
			<font-face-name
   name="Arial Bold" />
		</font-face-src>
	</font-face>
   <missing-glyph
   id="missing-glyph697"><path
     d="M0 0z"
     id="path695" /></missing-glyph>
   <glyph
   unicode="A"
   horiz-adv-x="722"
   d="M718.13 0l-156.196 0 -61.8469 163.026 -287.215 0 -59.5094 -163.026 -153.362 0 278.048 716.136 153.2 0 286.882 -716.136zm-265.045 284.048l-99.5196 265.055 -96.6863 -265.055 196.206 0z"
   id="glyph699" />
   <glyph
   unicode="L"
   horiz-adv-x="610"
   d="M77.0151 0l0 710.136 145.024 0 0 -589.114 359.07 0 0 -121.022 -504.094 0z"
   id="glyph701" />
   <glyph
   unicode="Y"
   horiz-adv-x="667"
   d="M261.048 0l0 301.392 -262.546 414.744 169.532 0 169.36 -283.552 164.868 283.552 166.365 0 -262.556 -415.746 0 -300.39 -145.024 0z"
   id="glyph703" />
   <glyph
   unicode="P"
   horiz-adv-x="667"
   d="M73.0181 0l0 716.136 231.875 0c87.8424,0 145.024,-3.50115 171.698,-10.6755 41.0019,-10.8374 75.3455,-34.1716 103.021,-70.1747 27.6651,-36.0132 41.5078,-82.5198 41.5078,-139.53 0,-44.0072 -8.00407,-80.8502 -23.8402,-110.853 -16.0081,-30.0026 -36.1751,-53.5089 -60.6832,-70.6807 -24.4979,-16.9998 -49.5018,-28.333 -74.8395,-33.8377 -34.5156,-6.83027 -84.3513,-10.3314 -149.699,-10.3314l-94.0149 0 0 -270.054 -145.024 0zm145.024 595.114l0 -204.038 78.8466 0c56.838,0 94.6828,3.83507 113.858,11.3332 19.1652,7.49812 34.1716,19.1652 44.9988,35.3353 10.8374,16.0081 16.3421,34.5055 16.3421,55.8463 0,26.1675 -7.67014,47.6804 -22.8384,64.6801 -15.3403,16.9998 -34.5055,27.6753 -58.0118,32.0062 -17.1718,3.16722 -51.6773,4.83684 -103.689,4.83684l-69.5069 0z"
   id="glyph705" />
  </font>
</defs>
</svg>
